<?xml version="1.0" standalone="no"?>
<!DOCTYPE svg PUBLIC "-//W3C//DTD SVG 1.1//EN" "http://www.w3.org/Graphics/SVG/1.1/DTD/svg11.dtd" >
<svg xmlns="http://www.w3.org/2000/svg">
<metadata>Generated by IcoMoon</metadata>
<defs>
<font id="icomoon" horiz-adv-x="1024">
<font-face units-per-em="1024" ascent="960" descent="-64" />
<missing-glyph horiz-adv-x="1024" />
<glyph unicode="&#x20;" horiz-adv-x="512" d="" />
<glyph unicode="&#xe906;" glyph-name="pm_cashterminal" horiz-adv-x="6144" d="M243.029 106.667c-75.093 0-137.216 17.067-165.205 41.643-77.141 67.584-47.104 197.291-36.864 237.568 63.488 247.125 126.976 392.533 309.931 392.533 60.075 0 161.109 12.288 201.387-47.104 30.72-45.739 15.019-107.861 12.971-177.493l-0.683-25.259-163.84 1.365 2.048 34.133c0 19.797 10.923 74.411-2.731 89.429-9.557 10.24-30.72 21.163-58.709 7.509-21.163-9.557-70.997-137.899-99.669-288.768-9.557-49.835-12.288-70.997-16.384-102.4-0.683-5.461-4.096-49.835 22.528-51.883 30.72-2.048 50.517 42.325 90.112 129.024l4.779 18.432h177.493l-23.211-59.392c-51.2-133.803-134.485-199.339-253.952-199.339zM845.824 114.176l8.192 113.323h-139.947l-45.056-113.323h-219.819l380.245 656.043h206.165v-656.043h-189.781zM869.717 358.571c-2.048 28.672 5.461 201.387 4.096 225.963-14.336-24.576-86.699-197.291-103.765-225.963h99.669zM1288.875 114.176c-88.747 0-152.235 13.653-182.272 38.229-34.133 27.989-17.749 91.477-14.336 158.379h165.888c0-18.432-9.557-68.267 4.779-81.92 13.653-12.288 18.432-12.288 35.499-12.288 55.296 0 78.507 53.931 81.92 101.035 2.048 25.259-0.683 40.277-81.92 58.709-119.467 27.307-151.552 100.352-133.803 208.896 20.48 124.928 150.869 181.589 216.405 193.195 83.285 15.019 164.523 21.163 210.944-22.528 38.912-36.181 38.229-118.784 34.133-179.541l-174.080-2.048c-0.683 22.528 2.048 44.373-0.683 77.141-0.683 9.557-23.211 10.923-43.691 10.923-48.469 0-57.344-49.152-58.027-77.824-0.683-43.008 49.152-53.248 49.152-53.248 122.88-49.152 189.781-58.709 169.301-215.723-10.923-99.669-106.496-201.387-279.211-201.387zM1860.949 114.176l62.123 276.48h-94.208l-70.315-276.48h-180.907l159.744 656.043h188.416l-64.171-258.048h115.371l63.488 258.048h163.84l-159.744-645.12zM2206.379 114.176l140.629 513.365h-168.619l39.595 142.677h496.299l-39.595-142.677h-168.619l-141.312-513.365zM2560.683 114.176l179.541 656.043h424.619l-38.229-142.677h-266.923l-27.307-98.304h253.269l-39.595-142.677h-253.269l-34.816-129.707h297.643l-60.075-142.677zM3335.509 114.176l-0.683 44.373c-0.683 30.72 8.875 77.824 30.72 147.456 12.971 46.421 4.779 58.027 4.096 58.709 0 0-7.509 6.144-37.547 6.144h-83.968l-69.632-256.683h-159.061l180.224 656.043h212.309c77.824 0 122.197-28.672 146.091-52.565 23.211-23.211 49.835-65.536 44.373-135.168-5.461-72.363-39.595-128.341-96.939-161.109 18.432-30.037 27.989-75.093 9.557-141.995l-0.683-1.365c-15.701-55.979-30.037-108.544-30.037-126.293l0.683-37.547h-149.504zM3333.461 512.171c94.891 0 109.909 40.96 112.64 77.141 1.365 14.336-0.683 25.941-5.461 30.72-4.096 4.096-15.701 8.192-37.547 8.192h-83.968l-31.403-116.053h45.739zM4016.128 114.176l66.219 240.981c-32.768-55.296-66.901-111.275-98.304-163.84l-46.421-77.141h-131.072l-2.048 43.691c-1.365 27.307-2.731 61.44-4.096 98.304-1.365 37.547-3.413 78.507-4.779 119.467-0.683-1.365-70.997-261.461-70.997-261.461h-157.013l180.907 656.043h178.176l2.048-43.008c4.096-73.045 10.923-210.944 15.019-324.267 34.133 55.979 75.093 123.563 116.736 192.512 32.768 54.613 66.219 108.544 94.891 156.331l10.923 17.749h189.099l-180.224-656.043h-159.061zM4310.357 114.176l180.907 656.043h159.061l-180.224-656.043zM4897.451 114.176l-9.557 34.133c-21.845 78.507-61.44 221.867-92.16 337.92-8.192-30.037-17.067-61.44-25.941-93.525l-5.461-19.797-70.997-259.413h-157.013l180.907 656.043h154.965l9.557-34.816c10.923-40.277 26.624-96.256 43.691-155.648 16.384-58.027 32.768-116.736 47.104-169.301 4.096 14.336 8.192 28.672 12.288 43.691 6.144 21.163 11.605 42.325 17.067 62.805l69.632 253.952h156.331l-180.224-656.043h-150.187zM5640.192 114.176l180.224 656.043h159.061l-141.312-513.365h279.211l-58.027-142.677zM5447.68 114.176l8.192 113.323h-139.947l-44.373-113.323h-219.819l380.245 656.043h206.165v-656.043h-190.464zM5472.256 358.571c-2.048 28.672 5.461 201.387 4.096 225.963-14.336-24.576-86.699-197.291-103.765-225.963h99.669z" />
<glyph unicode="&#xe907;" horiz-adv-x="751" d="M591.872 106.667h-434.859c-67.584 0-122.88 55.296-122.88 122.88v436.907c0 67.584 55.296 122.88 122.88 122.88h434.859c67.584 0 122.88-55.296 122.88-122.88v-436.907c0-67.584-54.613-122.88-122.88-122.88z" />
<glyph unicode="&#xe908;" horiz-adv-x="751" d="M716.8 430.933h-682.667v235.52c0 67.584 55.296 122.88 122.88 122.88h436.907c67.584 0 122.88-55.296 122.88-122.88v-235.52z" />
<glyph unicode="&#xe909;" horiz-adv-x="751" d="M106.496 486.912c-13.653 0-24.576 13.653-24.576 25.259v128.341c1.365 8.875 8.192 21.845 26.624 23.211l103.083-0.683v-21.163h-92.16c0 0-0.683 0-0.683 0-6.144 0-13.653-4.779-13.653-17.749 0-13.653 0.683-33.451 0.683-33.451v-4.779h86.016v-19.115h-86.016v-4.096l0.683-33.451c-0.683-4.779 0-9.557 2.731-12.288 2.731-3.413 7.509-4.779 12.971-4.779 0.683 0 2.048 0 2.048 0h87.381v-24.576h-105.131z" />
<glyph unicode="&#xe90a;" horiz-adv-x="751" d="M294.229 486.229c-34.816 0-54.613 6.827-54.613 40.277 0 26.624 15.701 38.229 50.517 38.229l43.008-0.683v13.653c0 9.557-4.096 18.432-35.499 18.432l-34.816-0.683c0 10.923 0 17.749 0 21.845 14.336 1.365 25.259 2.731 34.816 2.731 27.989 0 64.853-4.096 64.853-39.595v-79.189c0-3.413-0.683-8.192-8.192-10.24-10.24-3.413-37.547-4.779-60.075-4.779zM290.133 540.843c-17.749 0-21.163-5.461-21.163-14.336 0-13.653 6.144-17.067 30.037-17.067 4.096 0 22.528 0 34.133 2.048v30.037h-43.008z" />
<glyph unicode="&#xe90b;" horiz-adv-x="751" d="M440.32 486.229c-16.384 0-43.691 0-43.691 0v19.115c0 0 44.373 0.683 44.373 0.683 13.653 0 24.576 0 25.941 0 13.653 0 16.384 6.827 16.384 10.923 0 1.365 4.779 22.528-9.557 22.528l-58.709 2.048c-27.307 0-25.941 26.624-25.259 42.325l0.683 8.192c6.827 20.48 18.432 21.845 45.056 21.845 2.731 0 52.565-0.683 64.853-1.365l-0.683-17.067c0 0-66.901 1.365-67.584 1.365-15.019 0.683-19.115 0-19.797-12.288 0 0-0.683-11.605 0-18.432 0-6.827 4.096-6.144 17.749-6.144 6.144 0 44.373-0.683 45.739-0.683 25.941 0 29.355-11.605 29.355-23.211v-15.701c-0.683-28.672-8.875-36.181-64.853-34.133z" />
<glyph unicode="&#xe90c;" horiz-adv-x="751" d="M537.941 430.251v25.259c0 0 45.056 0.683 45.056 0.683 22.528 0 36.864 3.413 36.864 21.845h-6.144c-9.557-0.683-18.432-0.683-28.672-0.683-49.152 0-59.392 12.288-59.392 72.363l0.683 63.488h24.576v-63.488c0-3.413 0-6.144 0-8.875 0-14.336 0-23.211 4.096-28.672 4.096-6.144 12.971-8.192 30.037-8.192 10.923 0 24.576 0.683 34.133 1.365v4.779l-0.683 103.765h30.037v-118.784c0-50.517-13.653-64.171-65.536-64.171h-45.056z" />
<glyph unicode="&#xe90d;" horiz-adv-x="751" d="M84.651 237.056v183.637c0 0 53.248 0 60.075 0 59.392 0 87.381-5.461 87.381-58.709 0-55.296-27.989-57.344-87.381-57.344l-28.672-0.683-0.683-67.584h-30.72zM119.467 329.216h23.893c23.211 0 39.595 0 47.787 4.779 6.144 3.413 10.24 8.875 10.24 27.989s-4.096 24.576-10.24 28.672c-8.192 4.779-23.211 5.461-47.787 5.461h-23.893v-66.901z" />
<glyph unicode="&#xe90e;" horiz-adv-x="751" d="M294.229 239.104c-34.816 0-54.613 6.827-54.613 40.277 0 26.624 15.701 38.229 50.517 38.229h42.325l0.683 4.779v8.192c0 9.557-4.096 18.432-35.499 18.432h-34.133v21.845c13.653 1.365 24.576 1.365 34.133 1.365 27.989 0 64.853-4.096 64.853-39.595v-79.189c0-3.413-0.683-8.192-8.192-10.24-10.24-2.048-37.547-4.096-60.075-4.096zM290.133 294.4c-17.749 0-21.163-5.461-21.163-14.336 0-13.653 6.144-17.067 30.037-17.067 4.096 0 23.211 0 35.499 2.048v29.355h-44.373z" />
<glyph unicode="&#xe90f;" horiz-adv-x="751" d="M403.456 185.856v25.259l50.517 0.683c22.528 0 38.912 2.731 36.864 21.845h-6.144c-9.557-0.683-18.432-0.683-28.672-0.683-51.883 0-64.853 13.653-64.853 70.997l-1.365 61.44h30.037v-61.44c0-18.432 0.683-31.403 5.461-37.547 4.096-6.144 12.971-8.192 30.037-8.192 10.923 0 34.816 1.365 34.816 1.365v105.813h29.355v-116.053c0-50.517-13.653-63.488-65.536-63.488h-50.517z" />
<glyph unicode="&#xe910;" glyph-name="pm_epay" horiz-adv-x="2389" d="M175.445 237.056c-32.768 0-62.123 5.461-86.016 16.384-24.576 10.923-43.691 26.624-56.661 45.056-8.192 11.605-13.653 25.259-17.067 40.277-2.731 14.336-4.096 30.037-4.096 46.421v129.707c0 16.384 1.365 32.085 4.096 46.421 2.731 15.019 8.875 28.672 17.067 40.277 12.971 18.432 32.085 34.133 56.661 45.056 23.893 10.923 53.248 16.384 86.016 16.384 24.576 0 47.104-3.413 67.584-10.24s38.229-16.384 51.883-28.672c14.336-12.288 25.259-26.624 32.768-43.008s11.605-34.133 11.605-53.248v-98.987h-207.531l3.413-64.853c0-8.192 8.192-30.72 8.192-30.72s3.413-21.163 32.768-22.528c32.768-1.365 40.96 28.672 40.96 28.672s2.731 21.163 3.413 27.989l1.365 15.701 118.101 0.683v-17.067c0-18.432-4.096-35.499-11.605-51.883s-19.115-30.037-34.133-41.643c-14.336-11.605-31.403-21.163-51.883-27.307-19.797-5.461-42.325-8.875-66.901-8.875zM220.501 499.2v45.056c0 15.701-3.413 26.624-10.923 33.451-7.509 7.509-19.115 11.605-33.451 11.605s-25.259-3.413-33.451-11.605c-6.827-6.827-10.923-17.749-10.923-33.451v-45.056h88.747zM393.216 245.931v537.259h165.205c28.672 0 54.613-2.731 77.141-8.192 23.211-5.461 44.373-15.701 62.805-30.72 19.115-15.019 32.085-32.768 39.595-52.565 6.827-19.115 10.923-45.056 10.923-77.141 0-23.211-2.048-43.691-5.461-60.757-4.096-17.749-12.971-34.816-25.941-49.835-15.019-18.432-35.499-32.768-60.757-43.008-24.576-10.24-57.344-15.019-96.939-15.019h-38.912v-200.704h-127.659zM556.373 538.795c19.115 0 33.451 2.048 43.008 5.461 8.875 3.413 15.019 8.192 19.115 13.653 4.096 6.144 6.827 12.971 7.509 21.845 0.683 10.24 1.365 21.845 1.365 34.133 0 11.605-0.683 23.211-1.365 33.451-0.683 8.875-3.413 17.067-7.509 23.211-3.413 6.144-9.557 10.24-17.749 14.336-8.875 4.096-22.528 5.461-40.277 5.461h-40.277v-151.552h36.181zM878.592 241.152c-12.971 0-25.941 1.365-39.595 4.779-14.336 3.413-27.307 8.875-39.595 17.067-12.971 8.875-17.749 20.48-25.259 36.181-7.509 15.019-9.557 34.816-9.557 58.027s2.731 38.912 7.509 56.661c5.461 19.115 16.384 32.768 30.72 45.739 13.653 12.288 25.259 17.067 47.787 23.211 21.845 5.461 79.189 19.115 79.189 19.115s21.163 6.144 25.941 8.192c4.779 2.048 9.557 13.653 10.923 20.48 1.365 7.509 0 17.749 0 26.624 0 29.355-23.211 34.133-33.451 34.133-10.923 0-23.893-4.779-32.768-10.24-8.192-4.779-15.019-36.864-17.749-46.421l-101.717-2.048-4.096 1.365c3.413 38.912 2.731 75.093 32.768 98.304 14.336 10.923 32.085 19.797 51.883 26.624 19.797 6.144 42.325 9.557 66.901 9.557 22.528 0 51.2 0 70.997-5.461s32.768-8.875 47.787-19.797c15.019-11.605 26.624-33.451 33.451-51.2 2.048-4.779-4.096-255.317 2.048-298.325s10.24-44.373 8.875-44.373l-118.784-0.683-1.365 47.787c-6.144-8.192-13.653-32.085-27.989-41.643-17.067-8.875-37.547-13.653-64.853-13.653zM910.677 424.789c-16.384-8.192-15.019-7.509-21.163-19.115-4.096-6.827-6.144-23.211-6.144-45.056 0-11.605 3.413-20.48 10.24-27.989 6.827-6.827 16.384-10.24 30.037-10.24 14.336 0 24.576 3.413 31.403 9.557s10.24 15.701 10.24 27.989l2.731 90.112c-5.461 2.048-40.96-17.067-57.344-25.259zM1148.928 117.589l0.683 90.112 51.883 2.048c8.875 0 12.288 4.779 12.288 4.779 3.413 3.413 6.827 7.509 8.192 8.875 1.365 2.048 4.096 1.365 6.827 12.971 3.413 12.288 0 21.845 0 21.845l-110.592 397.995h126.293l48.469-281.941 47.787 281.941h124.928l-103.765-449.195c-5.461-17.749-14.336-32.768-24.576-44.373-10.923-11.605-23.211-21.845-36.864-28.672s-28.672-12.288-44.373-15.019c-15.019-2.731-30.72-4.096-47.104-4.096l-60.075 2.731zM1465.003 385.195h122.197v-139.264h-122.197v139.264zM1871.189 241.152c-27.989 0-49.152 4.096-64.171 12.288-6.827 3.413-12.971 7.509-19.797 12.288v-20.48h-126.976v544.085h126.976v-169.984c4.096 14.336 23.893 30.72 23.893 30.72s19.797 22.528 66.219 19.115c26.624-2.048 46.421-7.509 61.44-20.48 12.971-10.923 29.355-25.259 34.133-41.643 3.413-12.288 10.24-23.211 12.971-37.547 2.048-13.653 3.413-33.451 3.413-60.757v-141.312c0-21.163-1.365-38.229-4.096-51.2-2.731-13.653-8.192-25.259-15.019-34.816-19.797-26.624-53.248-40.277-98.987-40.277zM1824.085 583.851c-14.336 0-25.941-3.413-34.816-10.24-8.192-6.827-12.288-14.336-12.288-24.576v-176.811c0-12.971 4.096-23.211 12.971-30.72s19.797-11.605 34.816-11.605c16.384 0 27.989 4.096 34.816 11.605 7.509 8.875 11.605 20.48 11.605 36.181v166.571c0 11.605-3.413 21.163-10.24 29.355-7.509 8.875-23.893 10.24-36.864 10.24zM2215.936 106.667c-16.384 0-46.421-0.683-64.171 3.413s-16.384 1.365-32.768 8.875c-17.749 7.509-38.229 17.067-49.152 36.181-9.557 17.067-16.384 64.853-16.384 64.853l110.592-0.683c0 0 4.096-12.288 7.509-17.067 21.845-29.355 59.392-24.576 73.045 0 4.779 11.605 4.779 11.605 6.144 20.48l6.144 92.843c-7.509-5.461-40.277-55.296-86.016-59.392s-79.872 17.749-94.208 38.912c-6.827 9.557-30.72 58.709-30.037 83.285v142.677c0 28.672-2.048 50.517 4.096 65.536 2.731 6.827 8.192 17.749 22.528 34.816 9.557 11.605 22.528 20.48 37.547 27.989 15.701 7.509 32.085 16.384 58.709 16.384 13.653 0 34.133-5.461 39.595-8.875 14.336-6.827 32.768-30.037 47.787-54.613v53.248h120.149l-4.096-439.637c-19.115-101.035-76.459-102.4-76.459-102.4s-52.565-6.827-80.555-6.827zM2210.475 571.563c-15.701 0-26.624-3.413-33.451-10.24-7.509-7.509-10.923-18.432-10.923-32.085v-149.504c0-10.24 3.413-18.432 9.557-25.941 6.827-7.509 22.528-8.875 34.816-8.875 13.653 0 24.576 2.731 33.451 9.557 8.192 6.144 11.605 12.971 11.605 21.845v157.696c0 11.605-4.096 20.48-12.288 27.307-8.192 7.509-19.115 10.24-32.768 10.24z" />
<glyph unicode="&#xe911;" horiz-adv-x="1161" d="M580.267 194.731c68.267 62.123 111.275 152.917 111.275 253.269s-43.008 190.464-111.275 253.269c-60.075 54.613-139.947 88.064-227.328 88.064-187.051 0-338.603-152.917-338.603-341.333s151.552-341.333 338.603-341.333c87.381 0 167.253 33.451 227.328 88.064v0z" />
<glyph unicode="&#xe912;" horiz-adv-x="1161" d="M807.595 789.333c-87.381 0-167.253-33.451-227.328-88.064-12.288-10.923-23.893-23.211-34.133-36.181h68.267c9.557-11.605 17.749-23.211 25.941-36.181h-120.149c-7.509-11.605-13.653-23.893-19.797-36.181h159.061c5.461-11.605 10.24-23.893 14.336-36.181h-187.733c-4.096-11.605-7.509-23.893-9.557-36.181h207.531c4.779-23.211 7.509-47.787 7.509-72.363 0-38.229-6.144-74.411-17.749-108.544h-187.733c4.096-12.288 8.875-24.576 14.336-36.181h159.061c-6.144-12.288-12.288-24.576-19.797-36.181h-119.467c7.509-12.288 16.384-24.576 25.941-36.181h68.267c-10.24-12.971-21.845-25.259-34.133-36.181 60.075-54.613 139.947-88.064 227.328-88.064 187.051 0 338.603 152.917 338.603 341.333s-151.552 341.333-338.603 341.333v0z" />
<glyph unicode="&#xe913;" horiz-adv-x="1161" d="M310.613 362.667h-42.325l25.259 133.12-58.027-133.12h-38.229l-6.827 132.437-25.259-132.437h-38.229l32.768 173.397h65.536l3.413-107.179 46.421 107.179h68.949l-33.451-173.397z" />
<glyph unicode="&#xe914;" horiz-adv-x="1161" d="M781.653 364.715c-11.605-3.413-20.48-4.779-30.037-4.779-21.845 0-33.451 10.923-33.451 30.72 0 4.096 0.683 8.192 1.365 12.288l2.731 13.653 2.048 10.923 19.797 107.179h41.643l-6.144-32.085h21.845l-5.461-34.133h-21.845l-10.923-58.709c-0.683-2.731-0.683-4.779-0.683-6.144 0-7.509 4.096-10.24 14.336-10.24 4.779 0 8.192 0.683 11.605 1.365l-6.827-30.037z" />
<glyph unicode="&#xe915;" horiz-adv-x="1161" d="M905.216 502.613c-3.413 1.365-4.096 1.365-4.779 1.365-2.048 0.683-3.413 0.683-3.413 0.683-1.365 0-2.731 0.683-4.096 0.683-13.653 0-23.893-6.144-36.864-22.528l3.413 21.163h-38.229l-25.941-140.629h42.325c15.019 86.016 21.845 101.035 41.643 101.035 1.365 0 3.413 0 5.461-0.683l4.779-0.683 15.701 39.595z" />
<glyph unicode="&#xe916;" horiz-adv-x="1161" d="M614.4 459.605c0-17.749 10.24-30.037 32.768-38.912 17.067-6.827 19.797-8.875 19.797-15.701 0-8.875-7.509-12.971-24.576-12.971-12.971 0-24.576 2.048-38.229 5.461l-6.144-32.768h2.048l7.509-1.365c2.731-0.683 6.144-0.683 10.923-1.365 10.24-0.683 17.749-1.365 23.211-1.365 45.056 0 65.536 15.019 65.536 47.104 0 19.115-8.875 30.72-30.037 38.912-17.749 6.827-19.797 8.875-19.797 15.019 0 7.509 6.827 11.605 21.163 11.605 8.192 0 19.797-0.683 30.72-2.048l6.144 32.768c-10.923 1.365-27.989 2.731-37.547 2.731-47.104 0-63.488-21.163-63.488-47.104v0z" />
<glyph unicode="&#xe917;" horiz-adv-x="1161" d="M447.829 362.667h-34.816l0.683 14.336c-10.923-11.605-24.576-17.067-44.373-17.067-22.528 0-38.229 15.701-38.229 38.229 0 34.133 27.307 53.931 74.411 53.931 4.779 0 10.923-0.683 17.067-1.365 1.365 4.779 1.365 6.827 1.365 8.875 0 9.557-7.509 12.971-27.307 12.971-12.288 0-25.941-1.365-34.816-4.096h-6.144l-4.096-0.683 6.144 31.403c21.163 5.461 34.816 7.509 50.517 7.509 36.181 0 55.296-14.336 55.296-40.96 0-6.827-0.683-12.288-3.413-27.989l-8.875-49.835-1.365-8.875-1.365-6.827-0.683-4.779v-4.779zM417.109 425.472c-4.096 0.683-6.144 0.683-9.557 0.683-23.893 0-36.181-7.509-36.181-21.163 0-8.875 6.144-14.336 15.019-14.336 17.067 0 30.037 14.336 30.72 34.816v0z" />
<glyph unicode="&#xe918;" horiz-adv-x="1161" d="M585.728 366.080c-14.336-4.096-28.672-5.461-43.008-5.461-47.104 0-71.68 21.845-71.68 62.805 0 48.469 31.403 83.968 73.728 83.968 34.816 0 56.661-19.797 56.661-51.2 0-10.24-1.365-20.48-5.461-34.816h-83.285c0-2.048-0.683-3.413-0.683-4.096 0-16.384 12.288-24.576 36.864-24.576 15.019 0 28.672 2.731 43.691 8.875l-6.827-35.499zM563.2 450.048c0 2.731 0.683 5.461 0.683 7.509 0 11.605-7.509 18.432-19.797 18.432-13.653 0-23.211-8.875-26.624-25.259l45.739-0.683z" />
<glyph unicode="&#xe919;" horiz-adv-x="1161" d="M1036.288 426.837c-6.144-47.104-38.912-67.584-81.92-67.584-47.787 0-66.901 29.355-66.901 64.853 0 49.835 32.768 83.968 83.285 83.968 43.691 0 66.901-27.989 66.901-63.488-0.683-8.875-0.683-9.557-1.365-17.749v0zM992.597 444.587c0 15.019-6.144 28.672-23.211 28.672-21.845 0-34.816-25.941-34.816-48.469 0-19.115 8.875-32.085 23.893-31.403 8.875 0 28.672 12.288 32.768 34.133 0.683 5.461 1.365 10.923 1.365 17.067v0z" />
<glyph unicode="&#xe91a;" horiz-adv-x="1161" d="M808.277 106.667l17.749 0.683 17.749 1.365 17.067 2.048 16.384 2.731 17.067 4.096 15.701 4.096 16.384 5.461 15.019 6.144 15.701 6.827 14.336 7.509 28.672 17.749 25.941 19.115 12.288 10.923 12.288 11.605 10.923 11.605 10.923 12.288 10.24 12.971 9.557 13.653 8.875 13.653 8.192 14.336 7.509 15.019 6.827 15.019 6.144 15.701 5.461 15.701 4.779 16.384 3.413 16.384 3.413 17.067 2.048 17.067 1.365 17.067v35.499l-1.365 17.067-2.048 17.067-6.827 32.768-4.779 16.384-5.461 15.701-6.144 15.701-6.827 15.019-7.509 15.019-8.192 13.653-8.875 14.336-9.557 12.971-10.24 12.971-21.845 24.576-24.576 21.845-12.971 10.24-12.971 9.557-14.336 8.875-14.336 8.192-14.336 7.509-15.701 6.827-15.019 6.144-16.384 5.461-15.701 4.096-17.067 4.096-16.384 2.731-17.067 2.048-17.749 1.365-17.749 0.683-17.067-0.683-17.749-1.365-17.067-2.048-16.384-2.731-32.768-8.192-15.701-5.461-15.701-6.144-15.019-6.827-15.019-7.509-13.653-8.192-14.336-8.875-12.971-9.557-12.971-10.24-24.576-21.845-21.845-24.576-10.24-12.971-8.875-12.971-8.875-14.336-8.192-13.653-8.192-15.019-6.144-15.019-6.144-15.701-5.461-15.701-4.779-16.384-6.827-32.768-2.048-17.067-1.365-17.067-0.683-17.749 0.683-17.749 1.365-17.067 2.048-17.067 3.413-17.067 3.413-16.384 4.779-16.384 5.461-15.701 6.144-15.701 6.144-15.019 8.192-15.019 8.192-14.336 17.749-27.307 10.24-12.971 10.923-12.288 10.923-11.605 12.288-11.605 12.288-10.923 25.941-19.115 14.336-8.875 13.653-8.875 15.019-7.509 15.019-6.827 15.701-6.144 15.701-5.461 32.768-8.192 16.384-2.731 17.067-2.048 17.749-1.365 17.067-0.683z" />
<glyph unicode="&#xe91b;" horiz-adv-x="1161" d="M352.256 106.667l17.067 0.683 17.749 1.365 17.067 2.048 16.384 2.731 32.768 8.192 15.701 5.461 15.701 6.144 15.019 6.827 15.019 7.509 13.653 8.875 14.336 8.875 25.941 19.115 12.288 10.923 12.288 11.605 10.923 11.605 10.923 12.288 10.24 12.971 17.749 27.307 8.192 14.336 8.192 15.019 6.144 15.019 6.144 15.701 5.461 15.701 4.779 16.384 3.413 16.384 3.413 17.067 2.048 17.067 1.365 17.067 0.683 17.749-0.683 17.749-1.365 17.067-2.048 17.067-6.827 32.768-4.779 16.384-5.461 15.701-6.144 15.701-6.144 15.019-8.192 15.019-8.192 13.653-8.875 14.336-8.875 12.971-10.24 12.971-21.845 24.576-24.576 21.845-12.971 10.24-12.971 9.557-14.336 8.875-13.653 8.192-15.019 7.509-15.019 6.827-15.701 6.144-15.701 5.461-32.768 8.192-16.384 2.731-17.067 2.048-17.749 1.365-17.067 0.683-17.749-0.683-17.749-1.365-17.067-2.048-16.384-2.731-17.067-4.096-15.701-4.096-16.384-5.461-15.019-6.144-15.701-6.827-14.336-7.509-14.336-8.192-14.336-8.875-12.971-9.557-12.971-10.24-24.576-21.845-21.845-24.576-10.24-12.971-9.557-12.971-8.875-14.336-8.192-13.653-7.509-15.019-6.827-15.019-6.144-15.701-5.461-15.701-4.779-16.384-6.827-32.768-2.048-17.067-1.365-17.067v-35.499l1.365-17.067 2.048-17.067 3.413-17.067 3.413-16.384 4.779-16.384 5.461-15.701 6.144-15.701 6.827-15.019 7.509-15.019 8.192-14.336 8.875-13.653 9.557-13.653 10.24-12.971 10.923-12.288 10.923-11.605 12.288-11.605 12.288-10.923 25.941-19.115 28.672-17.749 14.336-7.509 15.701-6.827 15.019-6.144 16.384-5.461 15.701-4.096 17.067-4.096 16.384-2.731 17.067-2.048 17.749-1.365 17.749-0.683z" />
<glyph unicode="&#xe91c;" horiz-adv-x="1161" d="M539.989 658.261h181.589v18.432h-165.888l-15.701-18.432z" />
<glyph unicode="&#xe91d;" horiz-adv-x="1161" d="M513.365 617.301h208.213v18.432h-197.291l-10.923-18.432z" />
<glyph unicode="&#xe91e;" horiz-adv-x="1161" d="M492.885 576.341h228.693v18.432h-220.501l-8.192-18.432z" />
<glyph unicode="&#xe91f;" horiz-adv-x="1161" d="M479.232 534.699h242.347v18.432h-236.885l-5.461-18.432z" />
<glyph unicode="&#xe920;" horiz-adv-x="1161" d="M486.741 335.36h235.52v19.115h-240.981l5.461-19.115z" />
<glyph unicode="&#xe921;" horiz-adv-x="1161" d="M504.491 294.4h217.771v18.432h-226.645l8.875-18.432z" />
<glyph unicode="&#xe922;" horiz-adv-x="1161" d="M529.067 253.44h193.195v18.432h-204.8l11.605-18.432z" />
<glyph unicode="&#xe923;" horiz-adv-x="1161" d="M562.517 211.797h159.744v19.115h-176.128l16.384-19.115z" />
<glyph unicode="&#xe924;" horiz-adv-x="1161" d="M471.040 493.739h250.539v18.432h-247.125l-3.413-18.432z" />
<glyph unicode="&#xe925;" horiz-adv-x="1161" d="M623.957 377.003h95.573v18.432h-92.16l-3.413-18.432z" />
<glyph unicode="&#xe926;" horiz-adv-x="1161" d="M631.467 417.963h88.064v18.432h-84.651l-3.413-18.432z" />
<glyph unicode="&#xe927;" horiz-adv-x="1161" d="M464.213 436.395h25.259v-18.432h-23.893l-1.365 18.432z" />
<glyph unicode="&#xe928;" horiz-adv-x="1161" d="M417.792 458.923h-1.365l-1.365 0.683h-3.413l-1.365 0.683h-2.731l-2.048 0.683h-19.115l-2.048-0.683h-2.048l-2.048-0.683-1.365-0.683-2.048-1.365-1.365-0.683-2.048-2.048-1.365-2.731v-4.096l1.365-2.731 1.365-2.048 2.048-2.048 2.731-1.365 3.413-2.048 3.413-0.683 3.413-1.365 4.096-1.365 3.413-1.365 4.096-1.365 3.413-2.048 3.413-2.731 2.731-2.731 2.048-3.413 2.048-4.096 1.365-5.461v-13.653l-0.683-5.461-1.365-4.779-4.096-8.192-2.731-3.413-3.413-2.731-2.731-2.048-4.096-2.731-3.413-1.365-4.096-1.365-3.413-1.365-12.288-2.048h-30.72l-2.731 0.683h-2.731l-2.731 0.683h-2.048l-4.096 1.365h-2.048l-2.048 0.683-1.365 0.683-2.048 0.683 4.779 25.941 1.365-0.683h1.365l1.365-0.683 2.048-0.683h2.048l2.048-0.683 2.731-0.683h2.731l2.731-0.683 3.413-0.683h2.731l3.413-0.683h12.971l3.413 0.683 2.731 0.683 2.048 1.365 2.048 2.048 0.683 1.365 1.365 2.048 0.683 1.365v2.048l0.683 3.413-1.365 2.731-2.048 2.048-2.731 2.048-3.413 2.048-4.096 1.365-4.779 2.048-4.096 1.365-4.779 2.048-8.192 5.461-4.096 4.096-2.731 4.096-2.048 5.461-0.683 6.144v6.827l0.683 4.779 1.365 8.192 1.365 3.413 4.096 6.827 5.461 5.461 6.827 4.096 4.096 1.365 4.779 1.365 5.461 1.365 5.461 0.683h6.144l6.827 0.683h4.096l4.096-0.683h9.557l2.731-0.683h4.096l2.048-0.683h3.413l1.365-0.683h2.048l1.365-0.683h0.683l-6.144-25.941z" />
<glyph unicode="&#xe929;" horiz-adv-x="1161" d="M445.099 513.536h32.085l-4.779-27.989h19.115l-4.096-25.941-19.797 0.683-11.605-64.171v-2.731l0.683-2.048 2.731-2.731 4.096-1.365h2.731l2.731-0.683h2.731l2.048 0.683h2.048l2.048 0.683 1.365 0.683h2.048v0.683l-4.096-21.845-0.683-0.683h-0.683l-0.683-0.683-1.365-0.683h-0.683l-0.683-0.683h-1.365l-0.683-0.683h-1.365l-1.365-0.683h-2.731l-1.365-0.683h-3.413l-2.048-0.683h-8.875l-4.779 0.683-3.413 0.683-4.096 0.683-5.461 1.365-6.144 4.096-0.683 2.048-0.683 1.365-0.683 2.048-0.683 2.731v4.779l0.683 2.731v2.731l21.845 125.611z" />
<glyph unicode="&#xe92a;" horiz-adv-x="1161" d="M517.461 415.915l-0.683-2.048v-4.096l2.048-6.144 2.731-4.096 2.048-2.048 1.365-2.048 8.192-5.461 2.731-0.683h2.048l2.731-0.683 3.413-0.683h5.461l3.413-0.683h2.731l3.413 0.683h2.731l3.413 0.683h2.731l3.413 0.683 3.413 1.365 2.731 1.365 6.827 2.731 3.413 2.048-4.779-27.989-1.365-0.683-2.048-1.365-2.048-0.683-1.365-0.683-4.096-1.365h-1.365l-2.048-0.683h-2.048l-2.731-0.683h-10.923l-3.413-0.683h-4.096l-5.461 0.683h-5.461l-6.144 1.365-5.461 1.365-6.144 1.365-5.461 2.048-4.779 3.413-4.779 2.731-4.779 4.096-4.096 4.779-2.731 5.461-2.731 6.144-2.048 6.827-1.365 7.509-0.683 8.875 0.683 8.875 1.365 8.192 0.683 4.779 1.365 4.779 4.096 9.557 2.731 5.461 2.731 4.779 4.096 4.096 4.096 4.779 5.461 4.096 5.461 3.413 6.827 2.731 7.509 2.048 8.192 1.365 9.557 0.683 4.096-0.683h4.779l4.779-0.683 4.779-1.365 4.779-2.048 4.096-2.048 8.192-5.461 3.413-4.096 2.731-4.779 2.731-5.461 1.365-6.144 0.683-6.827v-7.509l-0.683-8.875-1.365-9.557-0.683-6.827h-83.968l5.461 22.528h50.517v5.461l-0.683 2.731v2.048l-0.683 2.048-1.365 2.048-0.683 2.048-4.096 4.096-2.048 0.683-1.365 1.365-2.048 0.683h-2.048l-2.048 0.683h-4.096l-2.048-0.683h-2.048l-2.048-0.683-1.365-1.365-2.048-0.683-2.048-1.365-2.731-2.731-2.731-4.096-0.683-1.365-1.365-2.048-0.683-2.731-0.683-2.048-0.683-2.731-4.096-23.893z" />
<glyph unicode="&#xe92b;" horiz-adv-x="1161" d="M791.893 478.72l-1.365 0.683-2.048 0.683-1.365 0.683-1.365 1.365-8.192 2.731h-2.048l-2.048 0.683-2.731 0.683h-2.048l-2.731 0.683h-14.336l-2.731-0.683-6.827-1.365-3.413-1.365-2.731-1.365-3.413-2.048-3.413-2.731-2.731-2.731-5.461-8.192-2.731-5.461-2.048-5.461-2.731-6.144-1.365-7.509-1.365-8.192v-12.288l0.683-3.413 4.096-10.24 2.048-2.731 2.731-2.731 2.731-2.048 6.827-4.096 3.413-1.365 4.779-1.365h1.365l2.048-0.683h4.096l2.731-0.683h5.461l2.731 0.683h2.731l3.413 0.683 5.461 1.365 2.731 1.365 2.731 2.048 2.731 1.365 2.048 2.048-4.779-30.72-1.365-1.365-1.365-0.683-0.683-0.683-2.731-1.365-2.048-1.365-2.048-0.683-5.461-1.365h-3.413l-4.096-0.683h-22.528l-4.779 0.683-10.923 2.731-5.461 2.731-4.779 2.731-4.779 3.413-4.779 4.096-4.096 4.096-4.096 5.461-2.731 5.461-5.461 13.653-1.365 8.192v17.067l2.048 14.336 1.365 4.096 1.365 4.779 0.683 4.096 4.096 12.288 2.048 3.413 1.365 3.413 4.096 6.827 6.144 8.192 7.509 7.509 8.192 6.144 3.413 1.365 2.731 1.365 10.24 4.096 3.413 0.683 4.096 0.683 3.413 0.683 8.192 1.365h15.701l3.413-0.683h3.413l6.827-1.365 8.192-2.048 2.048-0.683 2.731-0.683 1.365-0.683 2.048-0.683h1.365l0.683-0.683h0.683l-5.461-32.085z" />
<glyph unicode="&#xe92c;" horiz-adv-x="1161" d="M1075.2 361.984h-32.085l2.731 12.971v1.365l-2.048-2.731-2.048-2.048-2.048-1.365-2.048-2.048-4.096-2.731-2.048-0.683-2.048-1.365-4.096-1.365-2.731-0.683h-2.048l-2.048-0.683h-6.827l-6.144 0.683-5.461 0.683-5.461 2.048-4.096 2.731-4.096 3.413-4.096 4.096-3.413 4.096-2.731 4.779-4.096 10.923-1.365 5.461-0.683 6.144v11.605l0.683 5.461 0.683 6.144 2.048 6.827 4.096 12.288 2.731 5.461 3.413 5.461 3.413 4.779 3.413 4.096 8.192 6.827 8.192 5.461 4.779 2.048 4.096 1.365 4.779 1.365 4.779 0.683h8.192l2.731-0.683h3.413l2.731-1.365 2.731-0.683 2.048-0.683 2.048-1.365 2.731-1.365 1.365-1.365 2.048-1.365 1.365-2.048 2.731-2.731 0.683-1.365 1.365-1.365 0.683-1.365 7.509 45.056h31.403l-25.941-150.869z" />
<glyph unicode="&#xe92d;" horiz-adv-x="1161" d="M1023.317 389.973l2.731 0.683 3.413 0.683 2.731 0.683 2.731 1.365 2.048 1.365 2.731 1.365 4.096 4.096 1.365 2.048 2.048 2.731 2.731 5.461 0.683 2.731 1.365 3.413 0.683 2.731 1.365 6.827v9.557l-0.683 2.731v2.731l-0.683 2.731-2.731 5.461-2.731 4.096-1.365 1.365-2.048 1.365-4.096 1.365h-5.461l-3.413-0.683-2.731-0.683-2.048-1.365-2.731-1.365-2.048-2.048-2.048-1.365-2.048-2.731-1.365-2.048-2.048-2.731-1.365-2.731-1.365-3.413-1.365-2.731-2.048-10.24-0.683-4.779v-5.461l0.683-5.461 2.048-5.461 2.048-4.779 2.731-4.096 4.096-2.048 4.779-1.365z" />
<glyph unicode="&#xe92e;" horiz-adv-x="1161" d="M316.075 387.925l-4.779-25.941h-28.672l1.365 9.557v2.731l0.683 2.048-1.365-2.048-2.048-2.048-2.048-1.365-2.731-1.365-2.731-2.048-5.461-2.731-3.413-1.365-13.653-2.731h-9.557l-3.413 0.683-4.096 0.683-6.827 2.731-2.731 2.048-2.731 1.365-2.048 2.048-2.048 2.731-1.365 2.048-1.365 2.731-1.365 2.048-2.048 8.192v2.048l-0.683 2.731v2.731l0.683 4.096 0.683 4.779 0.683 4.096 2.048 3.413 1.365 4.096 2.048 3.413 2.731 2.731 2.731 3.413 2.731 2.048 3.413 2.731 6.827 4.096 3.413 1.365 8.192 2.731 3.413 0.683h4.779l1.365 0.683h3.413l2.048 0.683h6.144l2.048 0.683h15.019l2.048-0.683h2.731l0.683 0.683 0.683 2.048 0.683 2.731v2.048l-0.683 2.731-0.683 2.048-1.365 2.048-2.048 2.048-2.048 1.365-8.192 2.048h-17.749l-4.096-0.683h-3.413l-10.24-2.048h-3.413l-2.731-0.683-6.144-2.048-1.365-0.683 8.192 27.307 2.731 1.365 13.653 3.413h3.413l2.731 0.683h32.768l6.827-1.365 3.413-1.365 4.096-1.365 3.413-1.365 3.413-2.048 2.731-2.048 3.413-2.731 2.048-2.731 2.731-3.413 2.731-6.827 0.683-4.096v-4.096l-0.683-4.779-11.605-60.757z" />
<glyph unicode="&#xe92f;" horiz-adv-x="1161" d="M288.085 417.963v0.683l-0.683 0.683h-1.365l-1.365 0.683h-6.827l-2.048-0.683h-3.413l-2.048-0.683h-1.365l-1.365-0.683h-2.048l-2.731-1.365h-0.683l-2.048-0.683-1.365-1.365-2.731-1.365-2.048-1.365-4.096-4.096-0.683-1.365-1.365-1.365-0.683-2.048v-5.461l0.683-3.413 0.683-2.048 1.365-2.048 6.144-2.048h4.779l3.413 0.683h2.731l2.731 0.683 2.048 0.683 2.731 1.365 2.048 0.683 5.461 5.461 0.683 1.365 1.365 1.365 0.683 1.365v1.365l0.683 1.365 1.365 6.827 0.683 4.096 0.683 2.731z" />
<glyph unicode="&#xe930;" horiz-adv-x="1161" d="M73.728 361.984h-31.403l25.941 151.552h54.613l5.461-90.112 37.547 90.112h56.661l-26.624-151.552h-31.403l19.797 113.323h-1.365l-46.421-113.323h-35.499v4.779l-0.683 12.971-1.365 17.749-1.365 20.48-0.683 20.48-1.365 18.432-0.683 12.971v5.461h-2.048l-19.115-113.323z" />
<glyph unicode="&#xe931;" horiz-adv-x="1161" d="M887.467 387.925l-4.779-25.941h-28.672v12.288l0.683 1.365-3.413-3.413-2.048-1.365-2.731-2.048-2.048-1.365-5.461-2.731-3.413-1.365-2.731-0.683-6.827-1.365-2.731-0.683h-9.557l-3.413 0.683-4.096 0.683-6.827 2.731-3.413 2.048-2.048 1.365-2.731 2.048-1.365 2.731-2.048 2.048-1.365 2.731-0.683 2.048-2.048 8.192v2.048l-0.683 2.731v2.731l0.683 4.096 0.683 4.779 0.683 4.096 1.365 3.413 2.048 4.096 2.048 3.413 2.731 2.731 2.048 3.413 3.413 2.048 2.731 2.731 6.827 4.096 4.096 1.365 3.413 1.365 4.096 1.365 4.096 0.683h4.096l1.365 0.683h3.413l2.048 0.683h6.144l2.048 0.683h15.019l2.048-0.683h3.413v0.683l0.683 2.048v2.731l0.683 2.048-0.683 2.731-0.683 2.048-1.365 2.048-2.048 2.048-2.048 1.365-2.731 0.683-2.048 0.683-2.731 0.683h-17.749l-4.096-0.683h-3.413l-10.24-2.048h-3.413l-2.731-0.683-6.144-2.048-1.365-0.683 8.192 27.307 2.731 1.365 13.653 3.413h2.731l3.413 0.683h32.085l6.827-1.365 3.413-1.365 4.096-1.365 3.413-1.365 6.827-4.096 5.461-5.461 4.096-6.827 0.683-3.413 1.365-4.096v-4.096l-0.683-4.779-12.288-60.757z" />
<glyph unicode="&#xe932;" horiz-adv-x="1161" d="M882.688 361.301l0.683 0.683 4.779 25.941h-1.365l-4.779-25.259 0.683 0.683v-2.048h0.683v0.683l-0.683-0.683z" />
<glyph unicode="&#xe933;" horiz-adv-x="1161" d="M853.333 361.984l0.683-0.683h28.672v2.048h-28.672l0.683-1.365h-1.365v-0.683h0.683l-0.683 0.683z" />
<glyph unicode="&#xe934;" horiz-adv-x="1161" d="M854.699 374.955l-0.683 1.365-0.683-2.048v-12.288h1.365v12.971z" />
<glyph unicode="&#xe935;" horiz-adv-x="1161" d="M810.325 360.619v0l3.413-0.683h9.557l3.413 0.683 2.731 0.683 6.827 1.365 10.923 5.461 2.731 2.048 2.048 1.365 1.365 2.048 1.365 1.365-0.683 1.365-1.365-2.048-2.048-1.365-2.048-2.048-2.048-1.365-10.923-5.461-2.731-0.683-6.827-1.365-2.731-0.683h-9.557l-3.413 0.683v-1.365z" />
<glyph unicode="&#xe936;" horiz-adv-x="1161" d="M782.336 395.435v0-2.731l0.683-2.731v-2.731l0.683-2.731 0.683-2.048 1.365-5.461 2.048-2.731 1.365-2.048 4.096-4.096 5.461-4.096 3.413-1.365 4.096-1.365 4.096-0.683v1.365l-4.096 0.683-6.827 2.731-2.731 2.048-2.731 1.365-2.048 2.048-1.365 2.048-2.048 2.048-1.365 2.731-0.683 2.731-0.683 2.048-1.365 5.461v2.048l-0.683 2.731v2.731h-1.365z" />
<glyph unicode="&#xe937;" horiz-adv-x="1161" d="M823.979 439.808v0l-4.096-0.683-8.192-2.731-3.413-1.365-6.827-4.096-3.413-2.731-5.461-5.461-2.731-3.413-4.096-6.827-1.365-4.096-0.683-4.096-0.683-4.779-0.683-4.096h1.365l2.048 12.288 1.365 4.096 6.144 10.24 5.461 5.461 10.24 6.144 3.413 1.365 4.096 1.365 3.413 1.365 4.096 0.683v1.365z" />
<glyph unicode="&#xe938;" horiz-adv-x="1161" d="M847.189 441.856v0h-4.096l-2.048-0.683h-6.144l-2.048-0.683h-3.413l-1.365-0.683h-4.096v-1.365h4.096l1.365 0.683h3.413l2.048 0.683h6.144l2.048 0.683h4.096v1.365z" />
<glyph unicode="&#xe939;" horiz-adv-x="1161" d="M862.891 440.491l0.683 0.683h-3.413l-2.048 0.683h-10.923v-1.365h5.461l2.731-0.683h8.875v0.683h-1.365z" />
<glyph unicode="&#xe93a;" horiz-adv-x="1161" d="M864.256 448v0l-0.683-2.048v-2.048l-0.683-2.731v-0.683h1.365v0.683l0.683 2.048v2.731l0.683 2.048h-1.365z" />
<glyph unicode="&#xe93b;" horiz-adv-x="1161" d="M850.603 459.605v0l2.731-0.683 4.096-1.365 4.096-2.731 1.365-2.048 0.683-2.048 0.683-2.731h1.365l-1.365 5.461-2.048 2.048-1.365 2.048-2.731 1.365-2.048 0.683-5.461 1.365v-1.365z" />
<glyph unicode="&#xe93c;" horiz-adv-x="1161" d="M800.768 454.144l1.365-0.683 2.731 1.365 4.096 1.365 3.413 0.683h2.731l10.24 2.048h3.413l4.096 0.683h17.749v1.365h-17.749l-4.096-0.683h-3.413l-3.413-0.683-4.096-0.683-2.731-0.683h-3.413l-5.461-1.365-2.048-0.683-1.365-0.683-1.365-1.365 0.683-0.683-1.365 0.683z" />
<glyph unicode="&#xe93d;" horiz-adv-x="1161" d="M809.643 482.133l-0.683-0.683-8.192-27.307 1.365-0.683 8.192 27.989-0.683-0.683v1.365h-0.683v-0.683l0.683 0.683z" />
<glyph unicode="&#xe93e;" horiz-adv-x="1161" d="M860.843 487.595v0h-28.672l-3.413-0.683h-2.731l-2.731-0.683-3.413-0.683-5.461-1.365-2.048-0.683-2.731-1.365v-1.365l2.731 1.365 13.653 3.413h2.731l3.413 0.683h28.672v1.365z" />
<glyph unicode="&#xe93f;" horiz-adv-x="1161" d="M900.437 448.683v0l0.683 4.779v4.096l-1.365 4.096-0.683 4.096-2.048 3.413-2.731 3.413-2.731 2.731-2.731 2.048-3.413 2.731-3.413 2.048-6.827 2.731-4.096 1.365-6.827 1.365h-3.413v-1.365h3.413l2.731-0.683 4.096-0.683 10.24-4.096 6.827-4.096 5.461-5.461 2.048-2.731 2.731-6.827 1.365-4.096v-4.096l-0.683-4.779h1.365z" />
<glyph unicode="&#xe940;" horiz-adv-x="1161" d="M888.149 387.925v0l12.288 60.757h-1.365l-12.288-60.757h1.365z" />
<glyph unicode="&#xe941;" horiz-adv-x="1161" d="M859.477 417.963v0.683l-0.683 0.683h-0.683l-1.365 0.683h-8.192l-1.365-0.683h-3.413l-2.048-0.683h-1.365l-1.365-0.683h-2.048l-1.365-0.683h-0.683l-4.096-2.048-2.048-0.683-1.365-1.365-1.365-0.683-4.096-4.096-0.683-1.365-1.365-2.048-0.683-2.048v-8.875l2.731-4.096 1.365-0.683 4.096-1.365h5.461l3.413 0.683h2.731l2.731 1.365 2.731 0.683 2.048 0.683 4.096 2.731 4.096 4.096 0.683 1.365 1.365 1.365v1.365l1.365 2.731v3.413l1.365 6.827v2.731z" />
<glyph unicode="&#xe942;" horiz-adv-x="1161" d="M1097.045 378.368v2.048l0.683 3.413 4.096 5.461 2.048 1.365 2.731 1.365 3.413 1.365h6.144l8.192-4.096 2.048-2.731 1.365-2.731 1.365-3.413v-2.048h-3.413v2.048l-0.683 2.048-1.365 2.731-1.365 2.048-4.096 2.731-2.731 0.683h-5.461l-2.048-0.683-2.731-1.365-1.365-1.365-1.365-2.048-1.365-2.731-0.683-2.048v-2.048h-3.413z" />
<glyph unicode="&#xe943;" horiz-adv-x="1161" d="M1107.285 378.368v6.827h6.144l1.365-0.683h2.048l2.048-2.048v-0.683l0.683-0.683-0.683-1.365v-0.683l-0.683-0.683h-2.731l1.365 1.365v2.048h-0.683v0.683h-6.144v-4.096h-2.731z" />
<glyph unicode="&#xe944;" horiz-adv-x="1161" d="M1097.045 378.368l-0.683-0.683 1.365-6.827 2.048-2.731 4.096-4.096 2.731-1.365 3.413-1.365h6.144l5.461 2.731 2.731 2.048 2.048 2.048 1.365 2.731 1.365 3.413v4.096h-3.413v-4.096l-0.683-2.048-2.731-4.096-2.048-2.048-2.048-1.365-2.731-0.683h-5.461l-2.048 0.683-2.731 1.365-4.096 6.144-0.683 2.048v4.096h-3.413z" />
<glyph unicode="&#xe945;" horiz-adv-x="1161" d="M1107.285 378.368v-7.509h2.731v6.144h2.731l3.413-6.144h2.731l-3.413 6.144h2.048l0.683 0.683v0.683h-4.779l-0.683-0.683h-2.731v0.683h-2.731z" />
<glyph unicode="&#xe946;" horiz-adv-x="1161" d="M896.341 361.984h32.085l11.605 65.536 2.048 8.192 0.683 2.048 1.365 2.731 1.365 2.048 1.365 2.731 6.144 6.144 2.731 1.365 3.413 1.365 2.731 1.365 12.288 2.048h3.413l4.779 29.355h-3.413l-10.923-2.731-2.731-1.365-6.144-4.096-2.048-2.048-2.048-1.365-2.048-2.048-1.365-2.048-2.048-2.048-2.731-4.096 3.413 20.48h-32.768l-21.163-123.563z" />
<glyph unicode="&#xe947;" horiz-adv-x="1161" d="M591.189 361.984h32.768l11.605 65.536v2.731l0.683 2.731 0.683 2.048 0.683 2.731 1.365 2.048 0.683 2.048 1.365 2.048 2.048 2.048 1.365 2.048 2.048 1.365 5.461 2.731 3.413 1.365 3.413 0.683 4.096 0.683h7.509v-0.683l0.683 0.683v1.365l0.683 2.048 1.365 5.461 1.365 6.827 1.365 2.731 0.683 2.731 2.731 4.096 0.683 2.048 1.365 1.365 1.365 2.731h-0.683l-1.365 0.683h-6.827l-2.731-0.683-3.413-0.683-5.461-1.365-2.048-1.365-2.048-0.683-2.731-2.048-1.365-1.365-2.048-1.365-2.048-2.048-1.365-2.048-2.048-2.048-1.365-2.048-2.048-2.048-1.365-2.048 4.096 20.48h-32.768l-21.845-123.563z" />
<glyph unicode="&#xe948;" horiz-adv-x="1161" d="M1097.045 241.152v0.683l0.683 2.731 2.048 2.731 4.096 4.096 2.731 1.365 3.413 0.683 2.731 0.683 3.413-0.683 2.731-0.683 2.731-1.365 2.731-2.048 2.048-2.048 2.731-5.461v-0.683h-3.413l-0.683 2.731-2.731 4.096-4.096 2.731-2.731 0.683h-5.461l-2.048-0.683-2.731-1.365-1.365-1.365-2.731-4.096-0.683-2.731h-3.413z" />
<glyph unicode="&#xe949;" horiz-adv-x="1161" d="M1107.285 241.152v4.096h8.875l0.683-0.683h0.683l1.365-1.365v-0.683l0.683-1.365h-2.731v1.365l-0.683 0.683h-6.144v-2.048h-2.731z" />
<glyph unicode="&#xe94a;" horiz-adv-x="1161" d="M1096.363 238.421l0.683 2.731h3.413v-2.731h-4.096z" />
<glyph unicode="&#xe94b;" horiz-adv-x="1161" d="M1107.285 238.421v2.731h2.731v-2.048h5.461l1.365 1.365v0.683h2.731l-0.683-0.683v-0.683l-0.683-0.683v-0.683h-10.923z" />
<glyph unicode="&#xe94c;" horiz-adv-x="1161" d="M1125.717 238.421v2.731h3.413v-2.731h-3.413z" />
<glyph unicode="&#xe94d;" horiz-adv-x="1161" d="M1096.363 238.421v0l1.365-6.827 2.048-2.731 4.096-4.096 2.731-1.365 3.413-0.683 2.731-0.683 3.413 0.683 2.731 0.683 2.731 1.365 2.731 2.048 2.048 2.048 1.365 2.731 1.365 3.413v3.413h-3.413v-2.731l-0.683-2.731-2.731-4.096-4.096-2.731-5.461-1.365-2.731 0.683-2.048 0.683-2.731 1.365-1.365 1.365-2.731 4.096-0.683 2.731v2.731h-4.096z" />
<glyph unicode="&#xe94e;" horiz-adv-x="1161" d="M1107.285 238.421v-6.144h2.731v5.461h2.731l3.413-5.461h2.731l-3.413 5.461h1.365l0.683 0.683h-10.24z" />
<glyph unicode="&#xe94f;" horiz-adv-x="1980" d="M570.027 755.2h149.504c47.787 0 86.699-38.912 86.699-86.699v-249.173c0-47.787-38.912-86.699-86.699-86.699h-149.504c-47.787 0-86.699 38.912-86.699 86.699v249.173c0.683 47.787 39.595 86.699 86.699 86.699v0z" />
<glyph unicode="&#xe950;" horiz-adv-x="1980" d="M774.144-39.424v0c37.547 0 68.267 30.72 68.267 68.267v757.077c0 6.144-1.365 12.288-2.731 17.749 2.048 3.413 2.731 7.509 2.731 11.605v94.208c0 16.384-13.653 30.037-30.037 30.037v0c-16.384 0-30.037-13.653-30.037-30.037v-55.296c-2.731 0.683-6.144 0.683-8.875 0.683h-257.365c-37.547 0-68.267-31.403-68.267-68.949v-756.395c0-38.229 30.72-68.949 68.267-68.949h258.048zM570.027 755.2h149.504c47.787 0 86.699-38.912 86.699-86.699v-249.173c0-47.787-38.912-86.699-86.699-86.699h-149.504c-47.787 0-86.699 38.912-86.699 86.699v249.173c0.683 47.787 39.595 86.699 86.699 86.699v0z" />
<glyph unicode="&#xe951;" horiz-adv-x="1980" d="M902.485 739.499h0.683v-400.725h87.381l-1.365 180.907 59.392-1.365c62.123 5.461 98.987 37.547 103.765 103.765 2.048 65.536-25.259 110.592-85.333 118.101l-164.523-0.683zM991.232 698.539c40.277 6.144 71.68-5.461 73.728-69.632-1.365-57.344-31.403-71.68-73.728-68.949v138.581z" />
<glyph unicode="&#xe952;" horiz-adv-x="1980" d="M1304.576 744.277l103.765 0.683-0.683-45.056-81.237 0.683c-47.104-8.875-36.181-59.392-38.912-95.573l109.909 2.048 0.683-55.296-106.496 1.365-0.683-133.12c4.096-34.816 22.528-51.883 52.565-53.931l58.027 0.683 17.749-0.683-0.683-41.643-18.432-0.683-109.909 1.365c-38.229 1.365-68.949 20.48-83.285 79.189l-2.731 258.048c1.365 53.931 36.181 79.872 100.352 81.92v0z" />
<glyph unicode="&#xe953;" horiz-adv-x="1980" d="M1447.253 630.955c-6.827 86.699 41.643 105.813 99.669 112.64 68.267 4.096 111.275-24.576 119.467-97.621h-80.555c-4.779 36.864-33.451 51.2-60.075 33.451-37.547-45.739 79.189-126.293 114.005-156.331 60.075-47.787 49.835-180.224-43.008-204.8l-56.661-2.048c-57.344-1.365-91.477 34.816-101.717 102.4l81.237 1.365c4.096-28.672 16.384-46.421 43.008-45.739 40.277 7.509 51.883 43.691 22.528 89.429-59.392 52.565-131.072 101.035-137.899 167.253v0z" />
<glyph unicode="&#xe954;" horiz-adv-x="1980" d="M17.067 757.248h85.333l0.683-26.624c51.883 22.528 90.795 38.229 131.755 1.365 73.045 34.816 128.341 30.72 155.648-33.451l4.096-360.448h-86.699v344.064c-6.144 29.355-29.355 34.133-57.344 32.768v-376.149h-88.747v343.381c-6.144 29.355-29.355 34.133-57.344 32.768v-376.149h-87.381v418.475z" />
<glyph unicode="&#xe955;" horiz-adv-x="1980" d="M1714.859 327.851h88.747v221.184h73.728v-221.184h86.016v316.075c-2.048 64.171-51.2 104.448-120.832 104.448-79.189 0.683-124.928-36.864-127.659-101.035v-319.488zM1802.923 666.453c2.731 23.893 10.24 33.451 36.181 35.499 25.941-0.683 35.499-15.701 37.547-39.595v-64.171h-73.728v68.267z" />
<glyph unicode="&#xe956;" horiz-adv-x="1980" d="M552.96 586.581c15.019-34.816 34.816-50.517 59.392-51.883-38.229-28.672-79.189-45.739-122.197-56.661-26.624 2.048-52.565 8.875-77.824 15.701 63.488 12.288 110.592 43.008 140.629 92.843v0z" />
<glyph unicode="&#xe957;" horiz-adv-x="1980" d="M718.165 676.011l178.176-90.112c-90.795-120.149-243.712-122.88-406.869-107.179 109.227 26.624 185.003 93.525 228.693 197.291v0z" />
<glyph unicode="&#xe958;" glyph-name="pm_neteller" horiz-adv-x="4096" d="M3592.875 501.248c-21.845-15.019-53.248-22.528-96.256-22.528h-42.325l32.768 176.811h31.403c35.499 0 62.123-5.461 79.872-17.749 14.336-8.875 30.72-27.307 30.72-61.44 0-40.96-19.797-63.488-36.181-75.093zM1043.797 279.381h-330.411l21.163 115.371h207.531l23.893 130.389h-205.483l19.797 114.688h330.411l-66.901-360.448zM3771.051 739.499c-48.469 33.451-122.197 49.835-218.453 49.835h-252.587l-94.208-509.952h-331.093l21.163 115.371h199.339l23.893 129.707-199.339-0.683 21.163 115.371h206.165l27.307 149.504h-417.109l-89.429-484.011h-152.917l89.429 484.693h-217.771l-89.429-484.011h-148.821l90.112 484.011h-217.771l-94.208-509.952h-333.141l21.163 115.371h200.021l23.893 129.024h-200.021l21.163 115.371h207.531l27.307 149.504h-1299.797l-74.411-403.456-147.456 404.139h-225.963l-121.515-659.456h215.723l73.728 415.061 142.677-415.061h774.144l94.208 509.952h121.515l-94.208-509.952h2037.077l58.709 322.219 95.573-322.219h216.405l-98.987 262.827 22.528 4.779c49.835 10.923 88.747 33.451 116.053 68.267s40.96 79.189 40.96 133.12c0 62.123-23.211 108.544-70.315 140.629zM3949.227 207.701l29.355 1.365c6.144 0 10.923 1.365 14.336 2.731s6.144 3.413 7.509 6.827c1.365 2.731 2.731 6.144 2.048 9.557 0 4.779-2.048 8.875-6.144 11.605-3.413 2.731-9.557 4.096-17.067 4.096l-32.768-1.365 2.731-34.816zM3938.304 149.675l-5.461 103.765 45.739 2.048c8.875 0.683 16.384 0 21.163-2.048 4.779-1.365 8.875-4.779 12.288-9.557s4.779-9.557 4.779-15.701c0.683-7.509-1.365-13.653-6.144-19.115s-11.605-8.875-21.845-10.923c3.413-1.365 6.827-3.413 8.192-4.779 4.096-3.413 8.192-8.192 12.288-12.971l19.115-27.307-17.067-0.683-15.019 21.163c-4.096 6.144-8.192 10.923-10.923 13.653-2.731 3.413-5.461 5.461-7.509 6.827s-4.096 2.048-6.144 2.731c-1.365 0-4.096 0-7.509 0l-15.701-0.683 2.048-46.421h-12.288zM3893.248 199.509c-1.365 21.163 6.144 42.325 20.48 58.027s34.133 25.259 55.979 26.624c44.373 2.048 81.92-32.085 84.651-76.459 0-1.365 0-2.731 0-4.096 0-42.325-33.451-77.824-76.459-80.555-44.373-2.048-81.92 32.085-84.651 76.459zM3969.024 300.544c-25.941-1.365-49.835-12.971-66.901-32.085s-25.941-44.373-24.576-69.632c2.731-53.248 48.469-94.208 101.717-92.16 53.248 2.731 94.891 48.469 91.477 101.717v0c-2.731 53.248-48.469 94.891-101.717 92.16z" />
<glyph unicode="&#xe959;" glyph-name="pm_skrill" horiz-adv-x="2048" d="M1613.141 722.432l165.888 30.037v-638.976h-165.888v608.939zM1855.488 722.432v-608.939h165.888v638.293l-165.888-29.355zM1376.256 113.493h166.571v466.944h-165.888v-466.944zM279.211 514.219c-21.163 1.365-69.632 4.779-69.632 48.469 0 52.565 70.315 52.565 96.256 52.565 46.421 0 105.813-13.653 148.821-26.624 0 0 23.893-8.192 44.373-17.067l2.048-0.683v145.408l-2.731 0.683c-50.517 17.749-109.227 34.816-217.771 34.816-187.051 0-253.269-109.227-253.269-202.752 0-53.931 23.211-180.907 237.568-195.925 18.432-1.365 66.219-4.096 66.219-49.152 0-37.547-39.595-59.392-105.813-59.392-73.045 0-143.36 18.432-186.368 36.181v-149.504c64.171-17.067 136.533-25.259 221.184-25.259 182.955 0 264.875 103.083 264.875 206.165-0.683 116.736-92.16 191.829-245.76 202.069zM1282.731 587.264c-153.6-4.779-231.424-73.728-231.424-210.944v-262.827h167.253v214.357c0 81.92 10.923 117.419 107.861 120.832v136.533c-15.701 3.413-43.691 2.048-43.691 2.048zM832.171 581.12c-3.413-9.557-30.037-84.651-94.891-162.475v333.141l-171.349-34.133v-604.16h171.349v187.051c49.835-74.411 74.411-187.051 74.411-187.051h205.483c-20.48 84.651-109.227 240.299-109.227 240.299 79.872 101.035 114.688 208.896 120.149 227.328h-195.925zM1459.541 625.493c45.056 0 81.92 36.864 81.92 81.92s-36.864 81.92-81.92 81.92c-45.056 0-81.92-36.864-81.92-81.92s36.864-81.92 81.92-81.92z" />
<glyph unicode="&#xe95a;" horiz-adv-x="2116" d="M918.187 118.272h-171.349l107.179 659.456h171.349z" />
<glyph unicode="&#xe95b;" horiz-adv-x="2116" d="M602.112 777.728l-163.84-453.291-77.141 393.899c0 0-6.827 59.392-81.237 59.392h-271.019l-3.413-10.923c0 0 82.603-17.067 179.541-75.093l149.504-573.44h178.859l273.067 659.456h-184.32z" />
<glyph unicode="&#xe95c;" horiz-adv-x="2116" d="M1952.427 118.272h157.696l-137.216 659.456h-137.899c-63.488 0-79.189-49.152-79.189-49.152l-256-610.304h178.859l35.499 97.621h218.453l19.797-97.621zM1763.328 351.061l90.795 247.125 50.517-247.125h-141.312z" />
<glyph unicode="&#xe95d;" horiz-adv-x="2116" d="M1512.789 618.667l24.576 141.312c0 0-75.776 28.672-154.283 28.672-85.333 0-287.403-37.547-287.403-218.453 0-170.667 237.568-172.715 237.568-262.144s-212.992-73.728-283.307-17.067l-25.259-148.139c0 0 76.459-37.547 193.877-37.547s294.229 60.757 294.229 225.963c0 171.349-239.616 187.733-239.616 262.144-0.683 75.776 165.888 66.219 239.616 25.259z" />
<glyph unicode="&#xe95e;" horiz-adv-x="2116" d="M419.157 421.376l-58.027 296.277c0 0-6.827 59.392-81.237 59.392h-271.019l-3.413-10.923c0 0 130.389-26.624 254.635-127.659 120.149-96.256 159.061-217.088 159.061-217.088z" />
</font>
</defs>
</svg>
